Baixar toque para celular | Yeni Gelin | Shut Eye

Movies - Other

Geostorm 2017 1080p HD WEBRip 6CH AAC x264 - EiE

  • Download 5x Faster
  • Download torrent
  • Direct Download
  • Rate this torrent +  |  -


Torrent info

Name:Geostorm 2017 1080p HD WEBRip 6CH AAC x264 - EiE

Total Size: 1.90 GB

Magnet: Magnet Link

Seeds: 26

Leechers: 9

Stream: Watch Full Movie @ Movie4u

Last Updated: 2018-01-16 11:33:38 (Update Now)

Torrent added: 2018-01-03 15:50:09



VPN For Torrents

Torrent Files List


Read Me.txt (Size: 1.90 GB) (Files: 4)

 Read Me.txt

0.77 KB

 Goestorm 2017.srt

118.08 KB

 Goestorm 2017.mp4

1.90 GB

 ECLiPSE.txt

14.04 KB
 

tracker

leech seeds
 

Torrent description

Geostorm 2017 1080p HD WEBRip 6CH AAC x264 - EiE

http://www.imdb.com/title/tt1981128/


Screenshots:

http://lensdump.com/i/zsN9k

http://lensdump.com/i/zsDWe

http://lensdump.com/i/zsfGH

http://lensdump.com/i/zscHc


Video
ID : 1
Format : AVC
Format/Info : Advanced Video Codec
Format settings : CABAC / 4 Ref Frames
Format settings, CABAC : Yes
Format settings, RefFrames : 4 frames
Codec ID : avc1
Codec ID/Info : Advanced Video Coding
Duration : 1 h 49 min
Bit rate : 2 221 kb/s
Maximum bit rate : 12.8 Mb/s
Width : 1 912 pixels
Height : 800 pixels
Display aspect ratio : 2.40:1
Frame rate mode : Constant
Frame rate : 23.976
Color space : YUV
Chroma subsampling : 4:2:0
Bit depth : 8 bits
Scan type : Progressive
Bits/(Pixel*Frame) : 0.061
Stream size : 1.69 GiB (89%)

Audio
ID : 2
Format : AAC
Format/Info : Advanced Audio Codec
Format profile : LC
Codec ID : mp4a-40-2
Duration : 1 h 49 min
Bit rate mode : Variable
Bit rate : 265 kb/s
Maximum bit rate : 326 kb/s
Channel(s) : 6 channels
Channel positions : Front: L C R, Side: L R, LFE
Sampling rate : 48.0 kHz
Compression mode : Lossy
Stream size : 210 MiB (11%)
Language : English

related torrents

Torrent name

health leech seeds Size
 


comments (0)

Main Menu