Sweet Temptation (The Sweet Trilogy # | Ned's Newt | independenceday

Movies - Other

Spent 2017 1080p AMZN WEBRip AAC x264 - EiE

  • Download 5x Faster
  • Download torrent
  • Direct Download
  • Rate this torrent +  |  -
Spent 2017 1080p AMZN WEBRip AAC x264 - EiE

Download FREE And Anonymously


Torrent info

Name:Spent 2017 1080p AMZN WEBRip AAC x264 - EiE

Total Size: 1.50 GB

Magnet: Magnet Link

Seeds: 181

Leechers: 155

Stream: Watch Full Movie @ Movie4u

Last Updated: 2018-01-01 18:13:40 (Update Now)

Torrent added: 2018-01-01 07:10:19



VPN For Torrents

Torrent Files List


Read Me.txt (Size: 1.50 GB) (Files: 3)

 Read Me.txt

0.66 KB

 ECLiPSE.txt

14.04 KB

 Spent 2017.mp4

1.50 GB
 

tracker

leech seeds
 

Torrent description

Spent 2017 1080p AMZN WEBRip AAC x264 - EiE

http://www.imdb.com/title/tt6066280/


Screenshots:

http://lensdump.com/i/lktYM

http://lensdump.com/i/lkrBA

http://lensdump.com/i/lkR2Q

http://lensdump.com/i/lkTCa


Video
ID : 1
Format : AVC
Format/Info : Advanced Video Codec
Format settings : CABAC / 4 Ref Frames
Format settings, CABAC : Yes
Format settings, RefFrames : 4 frames
Codec ID : avc1
Codec ID/Info : Advanced Video Coding
Duration : 1 h 40 min
Bit rate : 2 042 kb/s
Maximum bit rate : 12.6 Mb/s
Width : 1 920 pixels
Height : 1 080 pixels
Display aspect ratio : 16:9
Frame rate mode : Constant
Frame rate : 23.976
Color space : YUV
Chroma subsampling : 4:2:0
Bit depth : 8 bits
Scan type : Progressive
Bits/(Pixel*Frame) : 0.041
Stream size : 1.44 GiB (96%)

Audio
ID : 2
Format : AAC
Format/Info : Advanced Audio Codec
Format profile : LC
Codec ID : mp4a-40-2
Duration : 1 h 40 min
Bit rate mode : Variable
Bit rate : 87.0 kb/s
Maximum bit rate : 131 kb/s
Channel(s) : 2 channels
Channel positions : Front: L R
Sampling rate : 48.0 kHz
Compression mode : Lossy
Stream size : 62.7 MiB (4%)
Language : English

related torrents

Torrent name

health leech seeds Size
 


comments (0)

Main Menu