Najpopularniejsze | Backstage CA 1 | 5.The Polar Express (2004)

Movies - Other

The greatest showman (2017) HDTS AC3 avi

  • Download 5x Faster
  • Download torrent
  • Direct Download
  • Rate this torrent +  |  -
The greatest showman (2017) HDTS AC3 avi

Download FREE And Anonymously


Torrent info

Name:The greatest showman (2017) HDTS AC3 avi

Total Size: 1.37 GB

Magnet: Magnet Link

Seeds: 201

Leechers: 33

Stream: Watch Full Movie @ Movie4u

Last Updated: 2018-01-15 10:50:55 (Update Now)

Torrent added: 2018-01-01 01:10:02



VPN For Torrents

Torrent Files List


The greatest showman (2017) HDTS AC3.avi (Size: 1.37 GB) (Files: 1)

 The greatest showman (2017) HDTS AC3.avi

1.37 GB
 

tracker

leech seeds
 

Torrent description

screens:

http://imgmak.com/mrH

http://imgmak.com/mrv

http://imgmak.com/mry

http://imgmak.com/mr6

http://imgmak.com/mr9

http://imgmak.com/mrM

http://imgmak.com/mrO

http://imgmak.com/mrP

http://imgmak.com/mrY

The Greatest Showman (2017) HDTS AC3


Format : AVI
Format/Info : Audio Video Interleave
File size : 1.37 GiB
Duration : 1 h 37 min
Overall bit rate : 2 013 kb/s
Writing application : VirtualDubMod 1.5.10.2 (build 2540/release)
Writing library : VirtualDubMod build 2540/release

Video
ID : 0
Format : MPEG-4 Visual
Format profile : Advanced [emailprotected]
Format settings : BVOP2
Format settings, BVOP : 2
Format settings, QPel : No
Format settings, GMC : No warppoints
Format settings, Matrix : Default (MPEG)
Codec ID : XVID
Codec ID/Hint : XviD
Duration : 1 h 37 min
Bit rate : 1 620 kb/s
Width : 720 pixels
Height : 304 pixels
Display aspect ratio : 2.35:1
Frame rate : 23.976 (24000/1001) FPS
Color space : YUV
Chroma subsampling : 4:2:0
Bit depth : 8 bits
Scan type : Progressive
Compression mode : Lossy
Bits/(Pixel*Frame) : 0.309
Stream size : 1.10 GiB (80%)
Writing library : XviD 1.2.1 (UTC 2008-12-04)

Audio
ID : 1
Format : AC-3
Format/Info : Audio Coding 3
Format settings, Endianness : Big
Codec ID : 2000
Duration : 1 h 37 min
Bit rate mode : Constant
Bit rate : 384 kb/s
Channel(s) : 2 channels
lang : rus
Channel positions : Front: L R
Sampling rate : 48.0 kHz
Frame rate : 31.250 FPS (1536 SPF)
Bit depth : 16 bits
Compression mode : Lossy
Stream size : 267 MiB (19%)
Alignment : Split accross interleaves
Interleave, duration : 42 ms (1.00 video frame)
Interleave, preload duration : 500 ms

related torrents

Torrent name

health leech seeds Size
 


comments (0)

Main Menu